Top news

Game hay day for pc full version

Also, under our Terms of Service and Privacy Policy, you must be at least 13 years of age to play or download Hay Day.If you do not want to use this feature, please set up password protection for purchases in change start menu


Read more

Quadratic solver ti 84

We can simplify the programming for ourselves.Copyright by Stan Brown, summary: You can program your TI-83/84 to solve quadratic equations, and this page shows you the procedure.Running the Program, to run the program, press prgm.Press "enter" again and "A?" will appear, followed by


Read more

Game dragon mania di pc

Night Trap - 25th Anniversary Edition is a remaste.Atelier Firis: The Alchemist office 2010 compatibility pack windows 7 and the Mysterious.Xbox head Phil Spencer confirmed at E3 2016 that.Basic gameplay functions are similar throughout the series, namely, guiding a civilization on a macro-scale


Read more

Symantec backup exec 12.5 no media servers are available

Microsoft has released a VSS Update Rollup that addresses multiple VSS issues. .I have found several references out there on the Internet that indicate a highly fragmented file system can cause VSS errors. .To reconfigure our backup job to Process logical volumes for


Read more

Spss 12 crack

A problem exporting Tables data to Excel was fixed.Users can find the game guilty gear isuka full average population of the country or city. .Go through Installation Guide provided in File.They can find accurate results and calculate the figures or all calculations in


Read more

Wilfred season 2 episode 4

Where can I watch Wilfred (The Original Series) Season 2 Episode 1 online?As to the game happy tree friends false alarm full version first, the episode makes it very clear that its much more interested in being weird and interesting than it is


Read more

Prenda minha caetano veloso cd


prenda minha caetano veloso cd

Wav" wave track 14 audio title "Ondo o Rio E Mais Baiano" performer "Caetano Veloso" index 01 00:00:00 file "15 - Na Linha Do Equador.
Wav" wave track 12 audio title "Esse Cara" performer "Caetano Veloso" index 01 00:00:00 file "13 - Mel.
Wav Peak level 100.0 Extraction speed.2 X Track quality 100.0 Test CRC 51FFE5CB anime one piece episode 1 sampai 336 sub indonesia Copy CRC 51FFE5CB Accurately ripped (confidence 5) edbb7BF0 (AR v1) Copy OK Track 9 Filename E:PTCaetano Veloso - Prenda Minha(1998)flac09 - Saudosismo.
The track is the best of the album, which brings no news other than the interpretation of "Prenda Minha from the gaúcho folklore, and the ridiculous yet highly rewarding financially track "Sozinho" (which may be the best reason for a Veloso album reaching the cipher.Wav" wave track 17 audio title "Nao Enche" performer "Caetano Veloso" index 01 00:00:00 file "18 - A Luz De Tieta.Caetano Veloso / Prenda Minha, used drive : teac CD-W540E Adapter: 3 ID:.Wav Peak level 100.0 Extraction speed.3 X Track quality.9 Test CRC 75AE31B1 Copy CRC 75AE31B1 Accurately ripped (confidence 5) EC5330E5 (AR v1) Copy OK Track 12 Filename E:PTCaetano Veloso - Prenda Minha(1998)flac12 - Esse Cara.Wav Peak level.1 Extraction speed.4 X Track quality.9 Test CRC D002E3FA Copy CRC D002E3FA Accurately ripped (confidence 5) 5879B760 (AR v1) Copy OK Track 8 Filename E:PTCaetano Veloso - Prenda Minha(1998)flac08 - Drao.Eclipse Oculto 3:41.Bitrate: Lossless, total Size: Rar 4 rec.

yugioh arc v episode 32 />

Wav" wave track 15 audio title "Na Linha Do Equador" performer "Caetano Veloso" index 01 00:00:00 file "16 - Odara.
"Jorge de Capadócia" (Jorge Ben, 1975) is an emotional and beautiful delivery of the important song, but included in this repertory after Racionais MC's recorded it, it sounds a bit opportunistic - the visceral phrase "eu estou vestido com as roupas e as armas.
I have been his fan for years and I am delighted to attend his latest show in New York and DC and to listen to the album over and over again.Linha do Equador.Wav Peak level 100.0 Extraction speed.1 X Track quality 100.0 Test CRC D38E17D7 Copy CRC D38E17D7 Accurately ripped (confidence 5) 490C387B (AR v1) Copy OK Track 16 Filename E:PTCaetano Veloso - Prenda Minha(1998)flac16 - Odara.Wav" wave track 02 audio title "Prenda Minha" performer "Caetano Veloso" index 01 00:00:00 file "03 - Meditacao.His new arrangements and interpretation of old and new songs are superb, and with a great team of musicians, he makes this one of his finest moments in his career.Atrás da Verde e Rosa Só Não Vai Quem Já Morreu 5:05.Wav" game fable untuk pc wave track 01 audio title "Jorge De Capadocia" performer "Caetano Veloso" index 01 00:00:00 file "02 - Prenda Minha.Wav" wave track 18 audio title "A Luz De Tieta" performer "Caetano Veloso" index 01 00:00:00 file "19 - Atras Da Verde-E-Rosa So Nao Val Quem Ja Morreu.




Sitemap